loewenmark High Castle s03 The flash WWE evo the walking dead South park IT star trek discovery español Lucifer great british bake off s09e10 The Equalizer 2 incredibles 2 big bang theory greys anatomy 2160p vikings homecoming the meg titans s01e04 Mile 22 mr robot en español ddr american horror story dtone arrow etrg Venom Сборник NFL survivor 2018 movies arrow español walking dead Modern family SUPERGIRL the predator 0 Blindspot S04E04 Blindspot House of cards legends of tomorrow a discovery of witches s01e08 the big bang theory s12e07 the good place A Discovery of Witches The Big Bang Theory game of thrones Star Trek Discovery titans fgt ethd van helsing z nation s05e05 The Nun Ncis shameless alpha 2018 ita DTone winterberg l?wenmark supernatural z nation etmovies big bang theory español ita hindi ettv 
Warning! Do not Download Without a VPN!
Your IP Address is .   Location is
Download and surf securely, stream unlimited and protect your personal data!
We strongly recommend using SpyOFF VPN!
Become Anonymous with SpyOFF
ETTV Recommended TV Shows
Titans.S01E04.WEBRip.x264-eSc[ettv] torrent
A.Discovery.Of.Witches.S01E08.HDTV.x264-GARBAGE[ettv] torrent
Van.Helsing.S03E05.WEB.x264-TBS[ettv] torrent
Hawaii.Five-0.2010.S09E06.HDTV.x264-SVA[ettv] torrent

ETTV Recommended Xvid
The Marine 6.Close Quarters.2018.DVDRip.XviD.AC3-EVO[EtMovies] torrent
The.Meg.2018.BDRip.XviD.AC3-EVO[EtMovies] torrent
The.First.Date.2018.HDRip.XviD.AC3-EVO[EtMovies] torrent
BlacKkKlansman.2018.BRRip.XviD.AC3-EVO[EtMovies] torrent

ETTV Recommended HD
Our.House.2018.BluRay.1080p.AAC.x264-MPAD[EtHD] torrent
The.Holiday.Calendar.2018.Multi.1080p.NF.WebDL.AVC.DD.5.1-DTOne torrent
The.Meg.2018.1080p.Bluray.X264-EVO[EtHD] torrent
BlacKkKlansman.2018.1080p.BluRay.x264-GECKOS[EtHD] torrent

ETTV Recommended UHD
Justice.League.Dark.2017.Multi.mUHD.2160p.BluRay.x265.HDR.DTS.5.1-DTOne torrent
The.Matrix.Revolutions.2003.Multi.mUHD.2160p.x265.HDR.DD.5.1-DTOne torrent
The.Fog.1980.Multi.UHD.2160p.Bluray.x265.HDR.TS.5.1-DTOne torrent
They.Live.1988.Multi.UHD.2160p.Bluray.x265.HDR.DTS.5.1-DTOne torrent

ETTV Recommended Cam
Hunter Killer 2018 HDCAM.XViD.AC3-ETRG torrent
Replicas 2018.HDCAM.x264.AC3-ETRG torrent
Bohemian Rhapsody 2018 HDCAM.XViD.AC3-ETRG torrent
The Nutcracker and the Four Realms 2018 HDCAM.XViD.AC3-ETRG torrent

ETTV Recommended Foreign
Raambo 2 (2018) 720p UNCUT HDRip x264 [Dual Audio] [Hindi DD 2.0 - Kannada 2.0] Exclusive By -=!Dr.STAR!=- torrent
Upendra Matte Baa (2017) 720p UNCUT HDRip x264 [Dual Audio] [Hindi DD 2.0 - Kannada 2.0] Exclusive By -=!Dr.STAR!=- torrent
Raatchasan (2018) 720p x265 AAC 5.1 - DTOne torrent
Dans la brume 2018 1080p BluRay DD5.1 x264-SPEED[EtHD] torrent

Social


Download Torrent "The Romanoffs (2018) S01E05 (1080p WebRip x265 HEVC 10bit EAC3 5.1 Kira) [U..."

IMDB Details
Description:

N/A

Genre:

N/A

Download Torrent (Magnet)
Download Torrent (File)
Seeds: 161
Leechers: 63
Completed: 469 
Last Checked: 03-11-2018 15:11:10


Loading...
Details
Title:The Romanoffs (2018) S01E05 (1080p WebRip x265 HEVC 10bit EAC3 5.1 Kira) [U...
Description:





Media Information
General
Format                                   : Matroska
Format version                           : Version 4 / Version 2
File size                                : 1.22 GiB
Duration                                 : 41 min 16 s
Overall bit rate                         : 4 236 kb/s
Movie name                               : The Flash : S05.E04 : News Flash
Encoded date                             : UTC 2018-11-02 03:57:07
Writing application                      : mkvmerge v28.2.0 ('The Awakening') 64-bit
Writing library                          : libebml v1.3.6 + libmatroska v1.4.9

Video
ID                                       : 1
Format                                   : HEVC
Format/Info                              : High Efficiency Video Coding
Format profile                           : Main [email protected]@Main
Codec ID                                 : V_MPEGH/ISO/HEVC
Duration                                 : 41 min 16 s
Bit rate                                 : 3 593 kb/s
Width                                    : 1 920 pixels
Height                                   : 1 080 pixels
Display aspect ratio                     : 16:9
Frame rate mode                          : Constant
Frame rate                               : 23.976 (24000/1001) FPS
Color space                              : YUV
Chroma subsampling                       : 4:2:0
Bit depth                                : 10 bits
Bits/(Pixel*Frame)                       : 0.072
Stream size                              : 1.04 GiB (85%)
Title                                    : The Flash : S05.E04 : News Flash
Writing library                          : x265 2.9+1-169e76b6bbcc:[Windows][MSVC 1915][64 bit] 10bit
Encoding settings                        : cpuid=1111039 / frame-threads=2 / numa-pools=4 / wpp / no-pmode / no-pme / no-psnr / no-ssim / log-level=2 / input-csp=1 / input-res=1920x1080 / interlace=0 / total-frames=59369 / level-idc=0 / high-tier=1 / uhd-bd=0 / ref=4 / no-allow-non-conformance / no-repeat-headers / annexb / no-aud / no-hrd / info / hash=0 / no-temporal-layers / open-gop / min-keyint=23 / keyint=250 / gop-lookahead=0 / bframes=8 / b-adapt=2 / b-pyramid / bframe-bias=0 / rc-lookahead=100 / lookahead-slices=4 / scenecut=40 / radl=0 / no-intra-refresh / ctu=64 / min-cu-size=8 / no-rect / no-amp / max-tu-size=32 / tu-inter-depth=1 / tu-intra-depth=1 / limit-tu=0 / rdoq-level=2 / dynamic-rd=0.00 / no-ssim-rd / signhide / no-tskip / nr-intra=0 / nr-inter=0 / no-constrained-intra / no-strong-intra-smoothing / max-merge=3 / limit-refs=3 / limit-modes / me=3 / subme=5 / merange=57 / temporal-mvp / weightp / no-weightb / no-analyze-src-pics / deblock=1:1 / sao / no-sao-non-deblock / rd=4 / no-early-skip / rskip / no-fast-intra / no-tskip-fast / no-cu-lossless / no-b-intra / no-splitrd-skip / rdpenalty=0 / psy-rd=1.30 / psy-rdoq=1.00 / no-rd-refine / no-lossless / cbqpoffs=0 / crqpoffs=0 / rc=crf / crf=22.0 / qcomp=0.60 / qpstep=4 / stats-write=0 / stats-read=0 / ipratio=1.40 / pbratio=1.30 / aq-mode=3 / aq-strength=1.00 / cutree / zone-count=0 / no-strict-cbr / qg-size=32 / no-rc-grain / qpmax=69 / qpmin=0 / no-const-vbv / sar=0 / overscan=0 / videoformat=5 / range=0 / colorprim=2 / transfer=2 / colormatrix=2 / chromaloc=0 / display-window=0 / max-cll=0,0 / min-luma=0 / max-luma=1023 / log2-max-poc-lsb=8 / vui-timing-info / vui-hrd-info / slices=1 / no-opt-qp-pps / no-opt-ref-list-length-pps / no-multi-pass-opt-rps / scenecut-bias=0.05 / no-opt-cu-delta-qp / no-aq-motion / no-hdr / no-hdr-opt / no-dhdr10-opt / no-idr-recovery-sei / analysis-reuse-level=5 / scale-factor=0 / refine-intra=0 / refine-inter=0 / refine-mv=0 / no-limit-sao / ctu-info=0 / no-lowpass-dct / refine-mv-type=0 / copy-pic=1 / max-ausize-factor=1.0 / no-dynamic-refine / no-single-sei
Language                                 : English
Default                                  : Yes
Forced                                   : No

Audio
ID                                       : 2
Format                                   : E-AC-3
Format/Info                              : Enhanced Audio Coding 3
Format settings, Endianness              : Big
Codec ID                                 : A_EAC3
Duration                                 : 41 min 16 s
Bit rate mode                            : Constant
Bit rate                                 : 640 kb/s
Channel(s)                               : 6 channels
Channel positions                        : Front: L C R, Side: L R, LFE
Sampling rate                            : 48.0 kHz
Frame rate                               : 187.500 FPS (256 spf)
Compression mode                         : Lossy
Stream size                              : 189 MiB (15%)
Title                                    : English EAC3 DD+_5.1 @ 640 Kbps
Language                                 : English
Default                                  : Yes
Forced                                   : No

Subtitle #1
ID                                       : 3
Format                                   : UTF-8
Codec ID                                 : S_TEXT/UTF8
Codec ID/Info                            : UTF-8 Plain Text
Duration                                 : 41 min 9 s
Bit rate                                 : 90 b/s
Count of elements                        : 911
Stream size                              : 27.2 KiB (0%)
Title                                    : English SDH SRT
Language                                 : English
Default                                  : Yes
Forced                                   : No

Subtitle #2
ID                                       : 4
Format                                   : UTF-8
Codec ID                                 : S_TEXT/UTF8
Codec ID/Info                            : UTF-8 Plain Text
Duration                                 : 41 min 9 s
Bit rate                                 : 81 b/s
Count of elements                        : 826
Stream size                              : 24.6 KiB (0%)
Title                                    : English SRT
Language                                 : English
Default                                  : No
Forced                                   : No

Source Information
Release: The.Flash.2014.S05E04.News.Flash.1080p.AMZN.WEB-DL.DDP5.1.H.264-NTb.mkv (3.26 GBs)


Category:TV > HEVC/x265
Lang:English  English
Total Size:1.75 GB
Info Hash:95965741021e549945673560cb131efde955bcbe
Added By:UTR
Date Added:03-11-2018 15:11:01

Files

File List: 
 File Size
The Romanoffs (2018) S01E05 (1080p WebRip x265 HEVC 10bit EAC3 5.1 Kira) [UTR].mkv1.75 GB



Loading...
Comments

There are currently no comments. Be the first one to write something !

Disclaimer: None of the files shown here are actually hosted or transmitted by this server. The links are provided solely by this site's users. The site moderation is also a service provided by the site's users. The administrator of this site (ettv.tv) cannot be held responsible for what its users post, or any other actions of its users. You may not use this site to distribute or download any material when you do not have the legal rights to do so. It is your own responsibility to adhere to these terms.

Sitemap