loewenmark High Castle s03 The flash WWE evo the walking dead South park IT star trek discovery español Lucifer great british bake off s09e10 The Equalizer 2 incredibles 2 big bang theory greys anatomy 2160p vikings homecoming the meg titans s01e04 Mile 22 mr robot en español ddr american horror story dtone arrow etrg Venom Сборник NFL survivor 2018 movies arrow español walking dead Modern family SUPERGIRL the predator 0 Blindspot S04E04 Blindspot House of cards legends of tomorrow a discovery of witches s01e08 the big bang theory s12e07 the good place A Discovery of Witches The Big Bang Theory game of thrones Star Trek Discovery titans fgt ethd van helsing z nation s05e05 The Nun Ncis shameless alpha 2018 ita DTone winterberg l?wenmark supernatural z nation etmovies big bang theory español ita hindi ettv 
Warning! Do not Download Without a VPN!
Your IP Address is .   Location is
Download and surf securely, stream unlimited and protect your personal data!
We strongly recommend using SpyOFF VPN!
Become Anonymous with SpyOFF
ETTV Recommended TV Shows
Titans.S01E04.WEBRip.x264-eSc[ettv] torrent
A.Discovery.Of.Witches.S01E08.HDTV.x264-GARBAGE[ettv] torrent
Van.Helsing.S03E05.WEB.x264-TBS[ettv] torrent
Hawaii.Five-0.2010.S09E06.HDTV.x264-SVA[ettv] torrent

ETTV Recommended Xvid
The Marine 6.Close Quarters.2018.DVDRip.XviD.AC3-EVO[EtMovies] torrent
The.Meg.2018.BDRip.XviD.AC3-EVO[EtMovies] torrent
The.First.Date.2018.HDRip.XviD.AC3-EVO[EtMovies] torrent
BlacKkKlansman.2018.BRRip.XviD.AC3-EVO[EtMovies] torrent

ETTV Recommended HD
Our.House.2018.BluRay.1080p.AAC.x264-MPAD[EtHD] torrent
The.Holiday.Calendar.2018.Multi.1080p.NF.WebDL.AVC.DD.5.1-DTOne torrent
The.Meg.2018.1080p.Bluray.X264-EVO[EtHD] torrent
BlacKkKlansman.2018.1080p.BluRay.x264-GECKOS[EtHD] torrent

ETTV Recommended UHD
Justice.League.Dark.2017.Multi.mUHD.2160p.BluRay.x265.HDR.DTS.5.1-DTOne torrent
The.Matrix.Revolutions.2003.Multi.mUHD.2160p.x265.HDR.DD.5.1-DTOne torrent
The.Fog.1980.Multi.UHD.2160p.Bluray.x265.HDR.TS.5.1-DTOne torrent
They.Live.1988.Multi.UHD.2160p.Bluray.x265.HDR.DTS.5.1-DTOne torrent

ETTV Recommended Cam
Hunter Killer 2018 HDCAM.XViD.AC3-ETRG torrent
Replicas 2018.HDCAM.x264.AC3-ETRG torrent
Bohemian Rhapsody 2018 HDCAM.XViD.AC3-ETRG torrent
The Nutcracker and the Four Realms 2018 HDCAM.XViD.AC3-ETRG torrent

ETTV Recommended Foreign
Raambo 2 (2018) 720p UNCUT HDRip x264 [Dual Audio] [Hindi DD 2.0 - Kannada 2.0] Exclusive By -=!Dr.STAR!=- torrent
Upendra Matte Baa (2017) 720p UNCUT HDRip x264 [Dual Audio] [Hindi DD 2.0 - Kannada 2.0] Exclusive By -=!Dr.STAR!=- torrent
Raatchasan (2018) 720p x265 AAC 5.1 - DTOne torrent
Dans la brume 2018 1080p BluRay DD5.1 x264-SPEED[EtHD] torrent

Social


Download Torrent "Psychoville (2009) Season 1-2 S01-S02 + Extras (1080p BluRay x265 HEVC 10bi..."

IMDB Details
Description:

N/A

Genre:

N/A

Download Torrent (Magnet)
Download Torrent (File)
Seeds: 158
Leechers: 364
Completed: 586 
Last Checked: 03-11-2018 05:15:26


Loading...
Details
Title:Psychoville (2009) Season 1-2 S01-S02 + Extras (1080p BluRay x265 HEVC 10bi...
Description:


http://www.imdb.com/title/tt1305562/


Note from Encoder:
Encoded with 2-Pass at 3,000 kb/s, includes extras, the Halloween Special, and all episodes have an audio commentary track and English subtitles. A huge thank you goes out to Panda for getting the discs/encoding the Halloween Special and all extras!



Encode Screenshots (Click for full quality)





Media Information
General
Format                                   : Matroska
Format version                           : Version 4 / Version 2
File size                                : 674 MiB
Duration                                 : 28 min 59 s
Overall bit rate                         : 3 249 kb/s
Encoded date                             : UTC 2018-10-24 15:49:59
Writing application                      : mkvmerge v20.0.0 ('I Am The Sun') 64-bit
Writing library                          : libebml v1.3.5 + libmatroska v1.4.8
Cover                                    : Yes
Attachments                              : cover.jpg
Writing frontend                         : StaxRip v1.7.0.6

Video
ID                                       : 1
Format                                   : HEVC
Format/Info                              : High Efficiency Video Coding
Format profile                           : Main [email protected]@Main
Codec ID                                 : V_MPEGH/ISO/HEVC
Duration                                 : 28 min 58 s
Bit rate                                 : 3 003 kb/s
Width                                    : 1 920 pixels
Height                                   : 1 080 pixels
Display aspect ratio                     : 16:9
Frame rate mode                          : Constant
Frame rate                               : 25.000 FPS
Color space                              : YUV
Chroma subsampling                       : 4:2:0
Bit depth                                : 10 bits
Bits/(Pixel*Frame)                       : 0.058
Stream size                              : 622 MiB (92%)
Title                                    : Encoded by r00t
Writing library                          : x265 2.9+2-7e978ed93d60:[Windows][GCC 8.2.0][64 bit] 10bit
Encoding settings                        : cpuid=1049071 / frame-threads=3 / numa-pools=8 / wpp / no-pmode / no-pme / no-psnr / no-ssim / log-level=2 / input-csp=1 / input-res=1920x1080 / interlace=0 / total-frames=43450 / level-idc=0 / high-tier=1 / uhd-bd=0 / ref=5 / no-allow-non-conformance / no-repeat-headers / annexb / no-aud / no-hrd / info / hash=0 / no-temporal-layers / open-gop / min-keyint=25 / keyint=250 / gop-lookahead=0 / bframes=8 / b-adapt=2 / b-pyramid / bframe-bias=0 / rc-lookahead=80 / lookahead-slices=4 / scenecut=40 / radl=0 / no-intra-refresh / ctu=64 / min-cu-size=8 / no-rect / no-amp / max-tu-size=32 / tu-inter-depth=1 / tu-intra-depth=1 / limit-tu=0 / rdoq-level=2 / dynamic-rd=0.00 / no-ssim-rd / signhide / no-tskip / nr-intra=0 / nr-inter=0 / no-constrained-intra / no-strong-intra-smoothing / max-merge=4 / limit-refs=3 / limit-modes / me=3 / subme=5 / merange=57 / temporal-mvp / weightp / weightb / no-analyze-src-pics / deblock=0:0 / no-sao / no-sao-non-deblock / rd=4 / no-early-skip / no-rskip / no-fast-intra / no-tskip-fast / no-cu-lossless / no-b-intra / no-splitrd-skip / rdpenalty=0 / psy-rd=2.00 / psy-rdoq=1.00 / no-rd-refine / no-lossless / cbqpoffs=0 / crqpoffs=0 / rc=abr / bitrate=3000 / qcomp=0.60 / qpstep=4 / stats-write=0 / stats-read=2 / cplxblur=20.0 / qblur=0.5 / ipratio=1.40 / pbratio=1.30 / aq-mode=3 / aq-strength=1.00 / cutree / zone-count=0 / no-strict-cbr / qg-size=32 / no-rc-grain / qpmax=69 / qpmin=0 / no-const-vbv / sar=0 / overscan=0 / videoformat=5 / range=0 / colorprim=2 / transfer=2 / colormatrix=2 / chromaloc=0 / display-window=0 / max-cll=0,0 / min-luma=0 / max-luma=1023 / log2-max-poc-lsb=8 / vui-timing-info / vui-hrd-info / slices=1 / no-opt-qp-pps / no-opt-ref-list-length-pps / no-multi-pass-opt-rps / scenecut-bias=0.05 / no-opt-cu-delta-qp / aq-motion / no-hdr / no-hdr-opt / no-dhdr10-opt / no-idr-recovery-sei / analysis-reuse-level=5 / scale-factor=0 / refine-intra=0 / refine-inter=0 / refine-mv=0 / no-limit-sao / ctu-info=0 / no-lowpass-dct / refine-mv-type=0 / copy-pic=1 / max-ausize-factor=1.0 / no-dynamic-refine / no-single-sei
Default                                  : Yes
Forced                                   : No

Audio #1
ID                                       : 2
Format                                   : AAC
Format/Info                              : Advanced Audio Codec
Format profile                           : LC
Codec ID                                 : A_AAC
Duration                                 : 28 min 59 s
Bit rate                                 : 151 kb/s
Channel(s)                               : 2 channels
Channel positions                        : Front: L R
Sampling rate                            : 48.0 kHz
Frame rate                               : 46.875 FPS (1024 spf)
Compression mode                         : Lossy
Delay relative to video                  : 20 ms
Stream size                              : 31.4 MiB (5%)
Language                                 : English
Default                                  : Yes
Forced                                   : No

Audio #2
ID                                       : 3
Format                                   : AAC
Format/Info                              : Advanced Audio Codec
Format profile                           : HE-AAC / LC
Codec ID                                 : A_AAC
Duration                                 : 28 min 57 s
Bit rate                                 : 80.0 kb/s
Channel(s)                               : 2 channels
Channel positions                        : Front: L R
Sampling rate                            : 48.0 kHz / 24.0 kHz
Frame rate                               : 23.438 FPS (1024 spf)
Compression mode                         : Lossy
Delay relative to video                  : 40 ms
Stream size                              : 16.6 MiB (2%)
Language                                 : English
Default                                  : No
Forced                                   : No

Subtitle
ID                                       : 4
Format                                   : PGS
Muxing mode                              : zlib
Codec ID                                 : S_HDMV/PGS
Codec ID/Info                            : Picture based subtitle format used on BDs/HD-DVDs
Duration                                 : 27 min 40 s
Bit rate                                 : 44.4 kb/s
Count of elements                        : 908
Stream size                              : 8.78 MiB (1%)
Language                                 : English
Default                                  : No
Forced                                   : No

Menu
00:00:00.000                             : en:Chapter 1
00:06:05.600                             : en:Chapter 2
00:12:15.600                             : en:Chapter 3
00:18:18.200                             : en:Chapter 4
00:24:19.080                             : en:Chapter 5
00:28:25.320                             : en:Chapter 6

Source Information
Release : Psychoville.S01.1080i.BluRay.REMUX.AVC.DTS-HD.MA.2.0-EPSiLON (51.20 GB) / Psychoville.S02.1080i.BluRay.REMUX.AVC.DD.2.0-EPSiLON (37.67 GB)



Note from QxR:
Whilst we are happy for our releases to be re-posted on a platform we aren't on, please do so in an 'as-is' format. We ask that you do not create a new torrent, include all descriptions you see above including the QxR logo, tags, notes and screenshots. If you'd like to become a permanent poster on a website we don't post to, feel free to get in contact with a QxR member.
Category:TV > HEVC/x265
Lang:English  English
Total Size:11.20 GB
Info Hash:62863fbc94afe54c8261a9e12fd1059ab3d22de3
Added By:QxR
Date Added:03-11-2018 05:15:21

Files

File List: 
 File Size
Featurettes/Halloween Special/Don't Tilt Your Head.mkv11 MB
Featurettes/Halloween Special/Interview with Director Matt Lipsey.mkv37 MB
Featurettes/Halloween Special/Mr Jelly's Halloween.mkv59 MB
Featurettes/Halloween Special/On Location with Phil Walker.mkv194 MB
Featurettes/Season 1/Alternate-Angle Version of David and Maureen.mkv190 MB
Featurettes/Season 1/Extended Interviews/Black Gloved Man.mkv22 MB
Featurettes/Season 1/Extended Interviews/Daniel Kaluuya.mkv20 MB
Featurettes/Season 1/Extended Interviews/Dawn French.mkv27 MB
Featurettes/Season 1/Extended Interviews/Justin Davies & Jon Plowman.mkv45 MB
Featurettes/Season 1/Extended Interviews/Reece Shearsmith.mkv59 MB
Featurettes/Season 1/Extended Interviews/Steve Pemberton.mkv26 MB
Featurettes/Season 1/Introduction to Alternate-Angle Version of David and Maureen with Writers+Stars Reece Shearsmith & Steve Pemberton.mkv26 MB
Featurettes/Season 1/Psychoville Season 1 - Behind the Scenes.mkv136 MB
Featurettes/Season 2/Character Profiles/Hattie.mkv63 MB
Featurettes/Season 2/Character Profiles/Hoiti Toyti.mkv68 MB
Featurettes/Season 2/Character Profiles/The Clowns.mkv96 MB
Featurettes/Season 2/Character Profiles/The Silent Singer.mkv64 MB
Featurettes/Season 2/Psychoville Season 2 - Behind the Scenes.mkv93 MB
Season 1/Psychoville (2009) - S01E01 - Black Mail (1080p BluRay x265 r00t).mkv674 MB
Season 1/Psychoville (2009) - S01E02 - Lomax (1080p BluRay x265 r00t).mkv679 MB
Season 1/Psychoville (2009) - S01E03 - Jelly (1080p BluRay x265 r00t).mkv677 MB
Season 1/Psychoville (2009) - S01E04 - David and Maureen (1080p BluRay x265 r00t).mkv690 MB
Season 1/Psychoville (2009) - S01E05 - Joy (1080p BluRay x265 r00t).mkv680 MB
Season 1/Psychoville (2009) - S01E06 - Robert (1080p BluRay x265 r00t).mkv682 MB
Season 1/Psychoville (2009) - S01E07 - Ravenhill (1080p BluRay x265 r00t).mkv680 MB
Season 2/Psychoville (2009) - S00E01 - Halloween Special (1080p BluRay x265 r00t).mkv1.34 GB
Season 2/Psychoville (2009) - S02E01 - Survivors (1080p BluRay x265 r00t).mkv677 MB
Season 2/Psychoville (2009) - S02E02 - Dinner Party (1080p BluRay x265 r00t).mkv679 MB
Season 2/Psychoville (2009) - S02E03 - Hancock (1080p BluRay x265 r00t).mkv681 MB
Season 2/Psychoville (2009) - S02E04 - Sunnyvale (1080p BluRay x265 r00t).mkv681 MB
Season 2/Psychoville (2009) - S02E05 - The Hunt (1080p BluRay x265 r00t).mkv683 MB
Season 2/Psychoville (2009) - S02E06 - Andrews Nanotech (1080p BluRay x265 r00t).mkv698 MB



Loading...
Comments

There are currently no comments. Be the first one to write something !

Disclaimer: None of the files shown here are actually hosted or transmitted by this server. The links are provided solely by this site's users. The site moderation is also a service provided by the site's users. The administrator of this site (ettv.tv) cannot be held responsible for what its users post, or any other actions of its users. You may not use this site to distribute or download any material when you do not have the legal rights to do so. It is your own responsibility to adhere to these terms.

Sitemap