The Good Place s03e07 The Equalizer 2 etrg ncis dtone american horror story how to get away with murder the flash 2018 ita arrow español klavierb?chlein wwe supernatural survivor big bang theory The Nun walking dead MODERN FAMILY ita nana vasconcelos porn the walking dead The Big Bang Theory s12e07 2018 movies fgt a star is born lucifer Better Call Saul alpha supernatural s14e04 0 daichi fujiki great british bake off s09e10 Venom ethd wwe crown jewel House of cards Arrow The Big Bang Theory game of thrones Star trek discovery big bang theory español Evo etmovies Greys Anatomy ettv titans s01e04 HINDI High Castle s03e07 South park titans Incredibles 2 Young Sheldon S02E07 LETHAL WEAPON The good place ddr house of cards s06 the predator IT evo Legends of tomorrow homecoming legacies S01E02 supergirl ETRG nfl LEGACIES blindspot seal team the meg young sheldon 
Warning! Do not Download Without a VPN!
Your IP Address is .   Location is
Download and surf securely, stream unlimited and protect your personal data!
We strongly recommend using SpyOFF VPN!
Become Anonymous with SpyOFF
ETTV Recommended TV Shows
Titans.S01E04.WEBRip.x264-eSc[ettv] torrent
A.Discovery.Of.Witches.S01E08.HDTV.x264-GARBAGE[ettv] torrent
Van.Helsing.S03E05.WEB.x264-TBS[ettv] torrent
Z.Nation.S05E05.WEB.x264-TBS[ettv] torrent

ETTV Recommended Xvid
The Marine 6.Close Quarters.2018.DVDRip.XviD.AC3-EVO[EtMovies] torrent
The.Meg.2018.BDRip.XviD.AC3-EVO[EtMovies] torrent
The.First.Date.2018.HDRip.XviD.AC3-EVO[EtMovies] torrent
BlacKkKlansman.2018.BRRip.XviD.AC3-EVO[EtMovies] torrent

ETTV Recommended HD
Our.House.2018.BluRay.1080p.AAC.x264-MPAD[EtHD] torrent
The.Holliday.Calendar.2018.Multi.1080p.NF.WebDL.AVC.DD.5.1-DTOne torrent
The.Meg.2018.1080p.Bluray.X264-EVO[EtHD] torrent
BlacKkKlansman.2018.1080p.BluRay.x264-GECKOS[EtHD] torrent

ETTV Recommended UHD
Justice.League.Dark.2017.Multi.mUHD.2160p.BluRay.x265.HDR.DTS.5.1-DTOne torrent
The.Matrix.Revolutions.2003.Multi.mUHD.2160p.x265.HDR.DD.5.1-DTOne torrent
The.Fog.1980.Multi.UHD.2160p.Bluray.x265.HDR.TS.5.1-DTOne torrent
They.Live.1988.Multi.UHD.2160p.Bluray.x265.HDR.DTS.5.1-DTOne torrent

ETTV Recommended Cam
Hunter Killer 2018 HDCAM.XViD.AC3-ETRG torrent
Replicas 2018.HDCAM.x264.AC3-ETRG torrent
Bohemian Rhapsody 2018 HDCAM.XViD.AC3-ETRG torrent
The Nutcracker and the Four Realms 2018 HDCAM.XViD.AC3-ETRG torrent

ETTV Recommended Foreign
Kaashi in Search of Ganga (2018) UntoucheD Desi Pre DvD - DTOne Exclusive torrent
Raatchasan (2018) [TAMIL - 720p - WEB HDRip - x264 - DD 5.1 - ESub - 2GB] - MAZE torrent
Raambo 2 (2018) 720p UNCUT HDRip x264 [Dual Audio] [Hindi DD 2.0 - Kannada 2.0] Exclusive By -=!Dr.STAR!=- torrent
Upendra Matte Baa (2017) 720p UNCUT HDRip x264 [Dual Audio] [Hindi DD 2.0 - Kannada 2.0] Exclusive By -=!Dr.STAR!=- torrent

Social


Download Torrent "Supernatural (2005) Season 11 S11 (1080p BluRay x265 HEVC 10bit AAC 5.1 Q22..."

IMDB Details
Description:

N/A

Genre:

N/A

Download Torrent (Magnet)
Download Torrent (File)
Seeds: 83
Leechers: 37
Completed: 124 
Last Checked: 02-11-2018 05:53:58


Loading...
Details
Title:Supernatural (2005) Season 11 S11 (1080p BluRay x265 HEVC 10bit AAC 5.1 Q22...
Description:





Media Information
General
Format                                   : Matroska
Format version                           : Version 4 / Version 2
File size                                : 626 MiB
Duration                                 : 42 min 27 s
Overall bit rate                         : 2 062 kb/s
Encoded date                             : UTC 2016-09-27 05:57:48
Writing application                      : mkvmerge v9.0.1 ('Obstacles') 64bit
Writing library                          : libebml v1.3.3 + libmatroska v1.4.4

Video
ID                                       : 1
Format                                   : HEVC
Format/Info                              : High Efficiency Video Coding
Format profile                           : Main [email protected]@Main
Codec ID                                 : V_MPEGH/ISO/HEVC
Duration                                 : 42 min 27 s
Bit rate                                 : 1 757 kb/s
Width                                    : 1 920 pixels
Height                                   : 1 080 pixels
Display aspect ratio                     : 16:9
Frame rate mode                          : Constant
Frame rate                               : 23.976 (24000/1001) FPS
Color space                              : YUV
Chroma subsampling                       : 4:2:0
Bit depth                                : 10 bits
Bits/(Pixel*Frame)                       : 0.035
Stream size                              : 534 MiB (85%)
Writing library                          : x265 1.9+140-34a3d35c5f97:[Windows][GCC 5.3.0][64 bit] 10bit
Encoding settings                        : wpp / ctu=64 / min-cu-size=8 / max-tu-size=32 / tu-intra-depth=1 / tu-inter-depth=1 / me=3 / subme=3 / merange=57 / rect / no-amp / max-merge=3 / temporal-mvp / no-early-skip / rdpenalty=0 / no-tskip / no-tskip-fast / strong-intra-smoothing / no-lossless / no-cu-lossless / no-constrained-intra / no-fast-intra / open-gop / no-temporal-layers / interlace=0 / keyint=250 / min-keyint=23 / scenecut=40 / rc-lookahead=25 / lookahead-slices=4 / bframes=4 / bframe-bias=0 / b-adapt=2 / ref=4 / limit-refs=3 / limit-modes / weightp / no-weightb / aq-mode=1 / qg-size=32 / aq-strength=1.00 / cbqpoffs=0 / crqpoffs=0 / rd=4 / psy-rd=2.00 / rdoq-level=2 / psy-rdoq=1.00 / no-rd-refine / signhide / deblock=0:0 / sao / no-sao-non-deblock / b-pyramid / cutree / no-intra-refresh / rc=crf / crf=22.0 / qcomp=0.60 / qpmin=0 / qpmax=51 / qpstep=4 / ipratio=1.40 / pbratio=1.30
Default                                  : Yes
Forced                                   : No

Audio #1
ID                                       : 2
Format                                   : AAC
Format/Info                              : Advanced Audio Codec
Format profile                           : HE-AAC / LC
Codec ID                                 : A_AAC
Duration                                 : 42 min 27 s
Bit rate                                 : 192 kb/s
Channel(s)                               : 6 channels
Channel positions                        : Front: L C R, Side: L R, LFE
Sampling rate                            : 48.0 kHz / 24.0 kHz
Frame rate                               : 23.438 FPS (1024 spf)
Compression mode                         : Lossy
Delay relative to video                  : 31 ms
Stream size                              : 57.4 MiB (9%)
Language                                 : English
Default                                  : No
Forced                                   : No

Audio #2
ID                                       : 3
Format                                   : AAC
Format/Info                              : Advanced Audio Codec
Format profile                           : HE-AAC / LC
Codec ID                                 : A_AAC
Duration                                 : 42 min 27 s
Bit rate                                 : 81.9 kb/s
Channel(s)                               : 2 channels
Channel positions                        : Front: L R
Sampling rate                            : 48.0 kHz / 24.0 kHz
Frame rate                               : 23.438 FPS (1024 spf)
Compression mode                         : Lossy
Delay relative to video                  : 31 ms
Stream size                              : 24.9 MiB (4%)
Language                                 : Spanish
Default                                  : No
Forced                                   : No

Subtitle #1
ID                                       : 4
Format                                   : VobSub
Muxing mode                              : zlib
Codec ID                                 : S_VOBSUB
Codec ID/Info                            : Picture based subtitle format used on DVDs
Duration                                 : 42 min 22 s
Bit rate                                 : 5 120 b/s
Count of elements                        : 542
Stream size                              : 1.55 MiB (0%)
Language                                 : Spanish
Default                                  : No
Forced                                   : No

Subtitle #2
ID                                       : 5
Format                                   : VobSub
Muxing mode                              : zlib
Codec ID                                 : S_VOBSUB
Codec ID/Info                            : Picture based subtitle format used on DVDs
Duration                                 : 42 min 23 s
Bit rate                                 : 5 194 b/s
Count of elements                        : 482
Stream size                              : 1.57 MiB (0%)
Language                                 : Spanish
Default                                  : No
Forced                                   : No

Subtitle #3
ID                                       : 6
Format                                   : VobSub
Muxing mode                              : zlib
Codec ID                                 : S_VOBSUB
Codec ID/Info                            : Picture based subtitle format used on DVDs
Duration                                 : 42 min 23 s
Bit rate                                 : 4 982 b/s
Count of elements                        : 483
Stream size                              : 1.51 MiB (0%)
Language                                 : Portuguese
Default                                  : No
Forced                                   : No

Subtitle #4
ID                                       : 7
Format                                   : VobSub
Muxing mode                              : zlib
Codec ID                                 : S_VOBSUB
Codec ID/Info                            : Picture based subtitle format used on DVDs
Duration                                 : 42 min 10 s
Bit rate                                 : 61 b/s
Count of elements                        : 7
Stream size                              : 19.1 KiB (0%)
Language                                 : Spanish
Default                                  : No
Forced                                   : No

Subtitle #5
ID                                       : 8
Format                                   : VobSub
Muxing mode                              : zlib
Codec ID                                 : S_VOBSUB
Codec ID/Info                            : Picture based subtitle format used on DVDs
Duration                                 : 42 min 10 s
Bit rate                                 : 85 b/s
Count of elements                        : 9
Stream size                              : 26.4 KiB (0%)
Language                                 : Portuguese
Default                                  : No
Forced                                   : No

Subtitle #6
ID                                       : 9
Format                                   : VobSub
Muxing mode                              : zlib
Codec ID                                 : S_VOBSUB
Codec ID/Info                            : Picture based subtitle format used on DVDs
Duration                                 : 19 min 21 s
Bit rate                                 : 604 b/s
Count of elements                        : 70
Stream size                              : 85.7 KiB (0%)
Language                                 : Japanese
Default                                  : No
Forced                                   : No

Subtitle #7
ID                                       : 10
Format                                   : VobSub
Muxing mode                              : zlib
Codec ID                                 : S_VOBSUB
Codec ID/Info                            : Picture based subtitle format used on DVDs
Duration                                 : 40 min 54 s
Bit rate                                 : 4 797 b/s
Count of elements                        : 563
Stream size                              : 1.40 MiB (0%)
Language                                 : Japanese
Default                                  : No
Forced                                   : No

Subtitle #8
ID                                       : 11
Format                                   : VobSub
Muxing mode                              : zlib
Codec ID                                 : S_VOBSUB
Codec ID/Info                            : Picture based subtitle format used on DVDs
Duration                                 : 42 min 22 s
Bit rate                                 : 5 985 b/s
Count of elements                        : 610
Stream size                              : 1.81 MiB (0%)
Language                                 : English
Default                                  : No
Forced                                   : No

Subtitle #9
ID                                       : 12
Format                                   : VobSub
Muxing mode                              : zlib
Codec ID                                 : S_VOBSUB
Codec ID/Info                            : Picture based subtitle format used on DVDs
Duration                                 : 42 min 22 s
Bit rate                                 : 5 030 b/s
Count of elements                        : 472
Stream size                              : 1.52 MiB (0%)
Language                                 : French
Default                                  : No
Forced                                   : No

Menu
00:00:00.000                             : en:00:00:00.000
00:01:19.997                             : en:00:01:19.997
00:04:57.672                             : en:00:04:57.672
00:17:12.448                             : en:00:17:12.448
00:25:33.407                             : en:00:25:33.407
00:32:08.718                             : en:00:32:08.718
00:36:06.414                             : en:00:36:06.414
00:41:58.599                             : en:00:41:58.599

Source Information
Release: Joy's Back Catalog


UTR wrote:

Note From UTR
We have no issue with individuals posting or re-uploading our torrents on a platform we aren't on. However, if this is something you'd like to do, please do so in a 'as-is' format. We ask that you do not create a new torrent, include all descriptions you see above including the UTR logo, tags, notes and screenshots. If you'd like to become a permanent poster on a website we don't post to, feel free to get in contact with a UniTeam member.

If possible please donate: BTC 1QA5fum5AyXvWzdVCkQzUNvw3Ef15fHRaR


Category:TV > HEVC/x265
Lang:English  English
Total Size:16.17 GB
Info Hash:7006cfbb4da3fdf6a1e40cbdc6d9f2c5bac05019
Added By:UTR
Date Added:02-11-2018 05:53:53

Files

File List: 
 File Size
Encoded by JoyBell.txt452.00 B
Extras/Digital Magic - Enhancing the Sets with VFX.mkv56 MB
Extras/Jensen Ackles On Directing the Bad Seed.mkv29 MB
Extras/On Set With SPN- The Real Fan Contest.mkv192 MB
Extras/Supernatural 2015 Comic-Con Panel.mkv204 MB
Extras/Supernatural Season 11 Gag Reel.mkv64 MB
Extras/The Winchester Mythology - Shedding Light on the Darkness.mkv105 MB
folder.jpg10.52 kB
How to play HEVC (THIS FILE).txt3.03 kB
Ninite K-Lite Codecs Unattended Silent Installer and Updater.website561.00 B
Supernatural S11E01 Out of the Darkness, Into the Fire (1080p x265 q22 Joy).mkv626 MB
Supernatural S11E02 Form and Void (1080p x265 q22 Joy).mkv816 MB
Supernatural S11E03 The Bad Seed (1080p x265 q22 Joy).mkv650 MB
Supernatural S11E04 Baby (1080p x265 q22 Joy).mkv848 MB
Supernatural S11E05 Thin Lizzie (1080p x265 q22 Joy).mkv630 MB
Supernatural S11E06 Our Little World (1080p x265 q22 Joy).mkv633 MB
Supernatural S11E07 Plush (1080p x265 q22 Joy).mkv658 MB
Supernatural S11E08 Just My Imagination (1080p x265 q22 Joy).mkv618 MB
Supernatural S11E09 O Brother, Where Art Thou (1080p x265 q22 Joy).mkv671 MB
Supernatural S11E10 The Devil in the Details (1080p x265 q22 Joy).mkv804 MB
Supernatural S11E11 Into the Mystic (1080p x265 q22 Joy).mkv669 MB
Supernatural S11E12 Don't You Forget About Me (1080p x265 q22 Joy).mkv563 MB
Supernatural S11E13 Love Hurts (1080p x265 q22 Joy).mkv671 MB
Supernatural S11E14 The Vessel (1080p x265 q22 Joy).mkv723 MB
Supernatural S11E15 Beyond the Mat (1080p x265 q22 Joy).mkv731 MB
Supernatural S11E16 Safe House (1080p x265 q22 Joy).mkv702 MB
Supernatural S11E17 Red Meat (1080p x265 q22 Joy).mkv712 MB
Supernatural S11E18 Hell's Angel (1080p x265 q22 Joy).mkv728 MB
Supernatural S11E19 The Chitters (1080p x265 q22 Joy).mkv488 MB
Supernatural S11E20 Don't Call Me Shurley (1080p x265 q22 Joy).mkv680 MB
Supernatural S11E21 All in the Family (1080p x265 q22 Joy).mkv839 MB
Supernatural S11E22 We Happy Few (1080p x265 q22 Joy).mkv684 MB
Supernatural S11E23 Alpha and Omega (1080p x265 q22 Joy).mkv769 MB



Loading...
Comments

There are currently no comments. Be the first one to write something !

Disclaimer: None of the files shown here are actually hosted or transmitted by this server. The links are provided solely by this site's users. The site moderation is also a service provided by the site's users. The administrator of this site (ettv.tv) cannot be held responsible for what its users post, or any other actions of its users. You may not use this site to distribute or download any material when you do not have the legal rights to do so. It is your own responsibility to adhere to these terms.

Sitemap