loewenmark High Castle s03 The flash WWE evo the walking dead South park IT star trek discovery español Lucifer great british bake off s09e10 The Equalizer 2 incredibles 2 big bang theory greys anatomy 2160p vikings homecoming the meg titans s01e04 Mile 22 mr robot en español ddr american horror story dtone arrow etrg Venom Сборник NFL survivor 2018 movies arrow español walking dead Modern family SUPERGIRL the predator 0 Blindspot S04E04 Blindspot House of cards legends of tomorrow a discovery of witches s01e08 the big bang theory s12e07 the good place A Discovery of Witches The Big Bang Theory game of thrones Star Trek Discovery titans fgt ethd van helsing z nation s05e05 The Nun Ncis shameless alpha 2018 ita DTone winterberg l?wenmark supernatural z nation etmovies big bang theory español ita hindi ettv 
Warning! Do not Download Without a VPN!
Your IP Address is .   Location is
Download and surf securely, stream unlimited and protect your personal data!
We strongly recommend using SpyOFF VPN!
Become Anonymous with SpyOFF
ETTV Recommended TV Shows
Titans.S01E04.WEBRip.x264-eSc[ettv] torrent
A.Discovery.Of.Witches.S01E08.HDTV.x264-GARBAGE[ettv] torrent
Ghost.Adventures.S17E01.Idaho.State.Reform.School.iNTERNAL.720p.HDTV.x264-DHD[ettv] torrent
UFC 230 Prelims HDTV x264-Star [TJET] torrent

ETTV Recommended Xvid
The Marine 6.Close Quarters.2018.DVDRip.XviD.AC3-EVO[EtMovies] torrent
The.Meg.2018.BDRip.XviD.AC3-EVO[EtMovies] torrent
The.First.Date.2018.HDRip.XviD.AC3-EVO[EtMovies] torrent
BlacKkKlansman.2018.BRRip.XviD.AC3-EVO[EtMovies] torrent

ETTV Recommended HD
Our.House.2018.BluRay.1080p.AAC.x264-MPAD[EtHD] torrent
The.Holiday.Calendar.2018.Multi.1080p.NF.WebDL.AVC.DD.5.1-DTOne torrent
The.Meg.2018.1080p.Bluray.X264-EVO[EtHD] torrent
BlacKkKlansman.2018.1080p.BluRay.x264-GECKOS[EtHD] torrent

ETTV Recommended UHD
Justice.League.Dark.2017.Multi.mUHD.2160p.BluRay.x265.HDR.DTS.5.1-DTOne torrent
The.Matrix.Revolutions.2003.Multi.mUHD.2160p.x265.HDR.DD.5.1-DTOne torrent
The.Fog.1980.Multi.UHD.2160p.Bluray.x265.HDR.TS.5.1-DTOne torrent
They.Live.1988.Multi.UHD.2160p.Bluray.x265.HDR.DTS.5.1-DTOne torrent

ETTV Recommended Cam
Hunter Killer 2018 HDCAM.XViD.AC3-ETRG torrent
Replicas 2018.HDCAM.x264.AC3-ETRG torrent
Bohemian Rhapsody 2018 HDCAM.XViD.AC3-ETRG torrent
The Nutcracker and the Four Realms 2018 HDCAM.XViD.AC3-ETRG torrent

ETTV Recommended Foreign
Raambo 2 (2018) 720p UNCUT HDRip x264 [Dual Audio] [Hindi DD 2.0 - Kannada 2.0] Exclusive By -=!Dr.STAR!=- torrent
Upendra Matte Baa (2017) 720p UNCUT HDRip x264 [Dual Audio] [Hindi DD 2.0 - Kannada 2.0] Exclusive By -=!Dr.STAR!=- torrent
Raatchasan (2018) 720p x265 AAC 5.1 - DTOne torrent
Dans la brume 2018 1080p BluRay DD5.1 x264-SPEED[EtHD] torrent

Social


Download Torrent "The Big Bang Theory (2007) Season 7 S07 + Extras (1080p BluRay x265 HEVC 10..."

IMDB Details
Description:

N/A

Genre:

N/A

Download Torrent (Magnet)
Download Torrent (File)
Seeds: 398
Leechers: 1,432
Completed: 1,900 
Last Checked: 01-11-2018 22:11:19


Loading...
Details
Title:The Big Bang Theory (2007) Season 7 S07 + Extras (1080p BluRay x265 HEVC 10...
Description:


http://www.imdb.com/title/tt0898266/


Note from Encoder:
Same as before, includes English, German and Portuguese audio tracks with all available bonus content.



Encode Screenshots (Click for full quality)




Media Information
General
Format                                   : Matroska
Format version                           : Version 4 / Version 2
File size                                : 1.00 GiB
Duration                                 : 21 min 24 s
Overall bit rate                         : 6 706 kb/s
Encoded date                             : UTC 2018-10-17 14:31:33
Writing application                      : mkvmerge v12.0.0 ('Trust / Lust') 64bit
Writing library                          : libebml v1.3.4 + libmatroska v1.4.5
Cover                                    : Yes
Attachments                              : cover.jpg

Video
ID                                       : 1
Format                                   : HEVC
Format/Info                              : High Efficiency Video Coding
Format profile                           : Main [email protected]@Main
Codec ID                                 : V_MPEGH/ISO/HEVC
Duration                                 : 21 min 22 s
Bit rate                                 : 6 103 kb/s
Width                                    : 1 920 pixels
Height                                   : 1 080 pixels
Display aspect ratio                     : 16:9
Frame rate mode                          : Constant
Frame rate                               : 23.976 (24000/1001) FPS
Color space                              : YUV
Chroma subsampling                       : 4:2:0
Bit depth                                : 10 bits
Bits/(Pixel*Frame)                       : 0.123
Stream size                              : 933 MiB (91%)
Writing library                          : x265 2.9+1-169e76b6bbcc:[Windows][MSVC 1900][64 bit] 10bit
Encoding settings                        : cpuid=1111039 / frame-threads=3 / numa-pools=8 / wpp / no-pmode / no-pme / no-psnr / no-ssim / log-level=2 / input-csp=1 / input-res=1920x1080 / interlace=0 / total-frames=30752 / level-idc=0 / high-tier=1 / uhd-bd=0 / ref=5 / no-allow-non-conformance / no-repeat-headers / annexb / no-aud / no-hrd / info / hash=0 / no-temporal-layers / open-gop / min-keyint=23 / keyint=250 / gop-lookahead=0 / bframes=8 / b-adapt=2 / b-pyramid / bframe-bias=0 / rc-lookahead=80 / lookahead-slices=4 / scenecut=40 / radl=0 / no-intra-refresh / ctu=64 / min-cu-size=8 / no-rect / no-amp / max-tu-size=32 / tu-inter-depth=1 / tu-intra-depth=1 / limit-tu=0 / rdoq-level=2 / dynamic-rd=0.00 / no-ssim-rd / signhide / no-tskip / nr-intra=0 / nr-inter=0 / no-constrained-intra / no-strong-intra-smoothing / max-merge=4 / limit-refs=3 / limit-modes / me=3 / subme=5 / merange=57 / temporal-mvp / weightp / weightb / no-analyze-src-pics / deblock=-3:-3 / no-sao / no-sao-non-deblock / rd=4 / no-early-skip / no-rskip / no-fast-intra / no-tskip-fast / no-cu-lossless / b-intra / no-splitrd-skip / rdpenalty=0 / psy-rd=1.50 / psy-rdoq=1.80 / no-rd-refine / no-lossless / cbqpoffs=0 / crqpoffs=0 / rc=crf / crf=22.0 / qcomp=0.60 / qpstep=4 / stats-write=0 / stats-read=0 / ipratio=1.40 / pbratio=1.30 / aq-mode=3 / aq-strength=0.90 / cutree / zone-count=0 / no-strict-cbr / qg-size=32 / no-rc-grain / qpmax=69 / qpmin=0 / no-const-vbv / sar=0 / overscan=0 / videoformat=5 / range=0 / colorprim=2 / transfer=2 / colormatrix=2 / chromaloc=0 / display-window=0 / max-cll=0,0 / min-luma=0 / max-luma=1023 / log2-max-poc-lsb=8 / vui-timing-info / vui-hrd-info / slices=1 / no-opt-qp-pps / no-opt-ref-list-length-pps / no-multi-pass-opt-rps / scenecut-bias=0.05 / no-opt-cu-delta-qp / no-aq-motion / no-hdr / no-hdr-opt / no-dhdr10-opt / no-idr-recovery-sei / analysis-reuse-level=5 / scale-factor=0 / refine-intra=0 / refine-inter=0 / refine-mv=0 / no-limit-sao / ctu-info=0 / no-lowpass-dct / refine-mv-type=0 / copy-pic=1 / max-ausize-factor=1.0 / no-dynamic-refine / no-single-sei
Default                                  : Yes
Forced                                   : No

Audio #1
ID                                       : 2
Format                                   : AAC
Format/Info                              : Advanced Audio Codec
Format profile                           : LC
Codec ID                                 : A_AAC
Duration                                 : 21 min 24 s
Bit rate                                 : 398 kb/s
Channel(s)                               : 6 channels
Channel positions                        : Front: L C R, Side: L R, LFE
Sampling rate                            : 48.0 kHz
Frame rate                               : 46.875 FPS (1024 spf)
Compression mode                         : Lossy
Delay relative to video                  : 20 ms
Stream size                              : 60.9 MiB (6%)
Language                                 : English
Default                                  : Yes
Forced                                   : No

Audio #2
ID                                       : 3
Format                                   : AAC
Format/Info                              : Advanced Audio Codec
Format profile                           : HE-AAC / LC
Codec ID                                 : A_AAC
Duration                                 : 21 min 24 s
Bit rate                                 : 80.0 kb/s
Channel(s)                               : 2 channels
Channel positions                        : Front: L R
Sampling rate                            : 48.0 kHz / 24.0 kHz
Frame rate                               : 23.438 FPS (1024 spf)
Compression mode                         : Lossy
Delay relative to video                  : 40 ms
Stream size                              : 12.2 MiB (1%)
Language                                 : Spanish
Default                                  : No
Forced                                   : No

Audio #3
ID                                       : 4
Format                                   : AAC
Format/Info                              : Advanced Audio Codec
Format profile                           : HE-AAC / LC
Codec ID                                 : A_AAC
Duration                                 : 21 min 24 s
Bit rate                                 : 80.0 kb/s
Channel(s)                               : 2 channels
Channel positions                        : Front: L R
Sampling rate                            : 48.0 kHz / 24.0 kHz
Frame rate                               : 23.438 FPS (1024 spf)
Compression mode                         : Lossy
Delay relative to video                  : 40 ms
Stream size                              : 12.2 MiB (1%)
Language                                 : Portuguese
Default                                  : No
Forced                                   : No

Subtitle #1
ID                                       : 5
Format                                   : VobSub
Muxing mode                              : zlib
Codec ID                                 : S_VOBSUB
Codec ID/Info                            : Picture based subtitle format used on DVDs
Duration                                 : 21 min 13 s
Bit rate                                 : 9 007 b/s
Count of elements                        : 331
Stream size                              : 1.37 MiB (0%)
Language                                 : English
Default                                  : No
Forced                                   : No

Subtitle #2
ID                                       : 6
Format                                   : VobSub
Muxing mode                              : zlib
Codec ID                                 : S_VOBSUB
Codec ID/Info                            : Picture based subtitle format used on DVDs
Duration                                 : 21 min 6 s
Bit rate                                 : 7 429 b/s
Count of elements                        : 316
Stream size                              : 1.12 MiB (0%)
Language                                 : French
Default                                  : No
Forced                                   : No

Subtitle #3
ID                                       : 7
Format                                   : VobSub
Muxing mode                              : zlib
Codec ID                                 : S_VOBSUB
Codec ID/Info                            : Picture based subtitle format used on DVDs
Duration                                 : 21 min 6 s
Bit rate                                 : 9 039 b/s
Count of elements                        : 314
Stream size                              : 1.36 MiB (0%)
Language                                 : Spanish
Default                                  : No
Forced                                   : No

Subtitle #4
ID                                       : 8
Format                                   : VobSub
Muxing mode                              : zlib
Codec ID                                 : S_VOBSUB
Codec ID/Info                            : Picture based subtitle format used on DVDs
Duration                                 : 21 min 6 s
Bit rate                                 : 6 489 b/s
Count of elements                        : 313
Stream size                              : 1 003 KiB (0%)
Language                                 : Korean
Default                                  : No
Forced                                   : No

Subtitle #5
ID                                       : 9
Format                                   : VobSub
Muxing mode                              : zlib
Codec ID                                 : S_VOBSUB
Codec ID/Info                            : Picture based subtitle format used on DVDs
Duration                                 : 21 min 6 s
Bit rate                                 : 8 731 b/s
Count of elements                        : 314
Stream size                              : 1.32 MiB (0%)
Language                                 : Spanish
Default                                  : No
Forced                                   : No

Subtitle #6
ID                                       : 10
Format                                   : VobSub
Muxing mode                              : zlib
Codec ID                                 : S_VOBSUB
Codec ID/Info                            : Picture based subtitle format used on DVDs
Duration                                 : 21 min 6 s
Bit rate                                 : 8 577 b/s
Count of elements                        : 314
Stream size                              : 1.29 MiB (0%)
Language                                 : Portuguese
Default                                  : No
Forced                                   : No

Menu
00:00:00.000                             : en:Chapter 01
00:02:39.784                             : en:Chapter 02
00:10:42.224                             : en:Chapter 03
00:20:25.265                             : en:Chapter 04
00:20:54.503                             : en:Chapter 05

Source Information
Release : The.Big.Bang.Theory.S07.1080p.BluRay.DTS-HD.MA5.1.H.264-ESiR (Thanks!)



Note from QxR:
Whilst we are happy for our releases to be re-posted on a platform we aren't on, please do so in an 'as-is' format. We ask that you do not create a new torrent, include all descriptions you see above including the QxR logo, tags, notes and screenshots. If you'd like to become a permanent poster on a website we don't post to, feel free to get in contact with a QxR member.
Category:TV > HEVC/x265
Lang:English  English
Total Size:22.39 GB
Info Hash:9f560d6dc8aa9c479519983b7307e84f2fa4fa77
Added By:QxR
Date Added:01-11-2018 22:11:15

Files

File List: 
 File Size
Featurettes/2013 Comic-Con Panel.mkv1.04 GB
Featurettes/BBTea Time.mkv81 MB
Featurettes/Gag Reel.mkv164 MB
Featurettes/James Earl Jones The Un-Conventional Guest Star.mkv121 MB
Featurettes/Johnny Galecki Crashes the BBT Writers Panel.mkv107 MB
Featurettes/String Theory Serenade.mkv136 MB
Featurettes/The Big Bang Theory's May the 4th.mkv239 MB
Featurettes/The Big Cendrowski Backstage with the Coolest Director and Cast in the Universe.mkv499 MB
The Big Bang Theory (2007) - S07E01 - The Hofstadter Insufficiency (1080p BluRay x265 RCVR).mkv1.00 GB
The Big Bang Theory (2007) - S07E02 - The Deception Verification (1080p BluRay x265 RCVR).mkv941 MB
The Big Bang Theory (2007) - S07E03 - The Scavenger Vortex (1080p BluRay x265 RCVR).mkv887 MB
The Big Bang Theory (2007) - S07E04 - The Raiders Minimization (1080p BluRay x265 RCVR).mkv862 MB
The Big Bang Theory (2007) - S07E05 - The Workplace Proximity (1080p BluRay x265 RCVR).mkv783 MB
The Big Bang Theory (2007) - S07E06 - The Romance Resonance (1080p BluRay x265 RCVR).mkv886 MB
The Big Bang Theory (2007) - S07E07 - The Proton Displacement (1080p BluRay x265 RCVR).mkv845 MB
The Big Bang Theory (2007) - S07E08 - The Itchy Brain Simulation (1080p BluRay x265 RCVR).mkv836 MB
The Big Bang Theory (2007) - S07E09 - The Thanksgiving Decoupling (1080p BluRay x265 RCVR).mkv798 MB
The Big Bang Theory (2007) - S07E10 - The Discovery Dissipation (1080p BluRay x265 RCVR).mkv771 MB
The Big Bang Theory (2007) - S07E11 - The Cooper Extraction (1080p BluRay x265 RCVR).mkv823 MB
The Big Bang Theory (2007) - S07E12 - The Hesitation Ramification (1080p BluRay x265 RCVR).mkv967 MB
The Big Bang Theory (2007) - S07E13 - The Occupation Recalibration (1080p BluRay x265 RCVR).mkv895 MB
The Big Bang Theory (2007) - S07E14 - The Convention Conundrum (1080p BluRay x265 RCVR).mkv813 MB
The Big Bang Theory (2007) - S07E15 - The Locomotive Manipulation (1080p BluRay x265 RCVR).mkv717 MB
The Big Bang Theory (2007) - S07E16 - The Table Polarization (1080p BluRay x265 RCVR).mkv898 MB
The Big Bang Theory (2007) - S07E17 - The Friendship Turbulence (1080p BluRay x265 RCVR).mkv753 MB
The Big Bang Theory (2007) - S07E18 - The Mommy Observation (1080p BluRay x265 RCVR).mkv827 MB
The Big Bang Theory (2007) - S07E19 - The Indecision Amalgamation (1080p BluRay x265 RCVR).mkv852 MB
The Big Bang Theory (2007) - S07E20 - The Relationship Diremption (1080p BluRay x265 RCVR).mkv867 MB
The Big Bang Theory (2007) - S07E21 - The Anything Can Happen Recurrence (1080p BluRay x265 RCVR).mkv876 MB
The Big Bang Theory (2007) - S07E22 - The Proton Transmogrification (1080p BluRay x265 RCVR).mkv780 MB
The Big Bang Theory (2007) - S07E23 - The Gorilla Dissolution (1080p BluRay x265 RCVR).mkv951 MB
The Big Bang Theory (2007) - S07E24 - The Status Quo Combustion (1080p BluRay x265 RCVR).mkv864 MB



Loading...
Comments

There are currently no comments. Be the first one to write something !

Disclaimer: None of the files shown here are actually hosted or transmitted by this server. The links are provided solely by this site's users. The site moderation is also a service provided by the site's users. The administrator of this site (ettv.tv) cannot be held responsible for what its users post, or any other actions of its users. You may not use this site to distribute or download any material when you do not have the legal rights to do so. It is your own responsibility to adhere to these terms.

Sitemap